#TITLE:我的排行榜;
#SUBTITLE:;
#ARTIST:华少翌;
#TITLETRANSLIT:;
#SUBTITLETRANSLIT:;
#ARTISTTRANSLIT:;
#CREDIT:;
#BANNER:o_logo.jpg;
#BACKGROUND:o_bg.jpg;
#LYRICSPATH:;
#CDTITLE:Lan.png;
#MUSIC:o.mp3;
#OFFSET:-0.060;
#SAMPLESTART:100.000;
#SAMPLELENGTH:12.000;
#SELECTABLE:YES;
#BPMS:0.000=105.000;
#STOPS:;
#BGCHANGES:;
// cache tags:
#FIRSTBEAT:24.000;
#LASTBEAT:285.750;
#SONGFILENAME:Songs/SDO 2/o/o.sm;
#HASMUSIC:1;
#HASBANNER:1;
#MUSICLENGTH:164.264;
// end cache tags

//---------------dance-single - sky----------------
#NOTES:
     dance-single:
     sky:
     Hard:
     9:
     0.682,0.892,1.000,0.134,0.454,573.000,189.000,22.000,0.000,13.000:

0000
0000
0000
0000
,
0000
0000
0000
0000
,
0000
0000
0000
0000
,
0000
0000
0000
0000
,
0000
0000
0000
0000
,
0000
0000
0000
0000
,
1100
0010
0001
0010
1100
0110
0001
0110
,
1100
0010
0001
0010
1100
0110
0001
0110
,
1100
0000
0011
0000
1010
0101
1001
0000
,
0110
0010
1001
0010
0100
0010
1001
0000
,
2100
0000
0011
0000
0110
0100
3010
0001
,
0011
0101
0000
0000
1100
1010
0000
0000
0110
0101
0000
0000
1001
0000
0000
0000
,
0110
0001
1010
0100
0011
0100
1100
0000
,
0110
0010
0011
0000
1100
1100
0011
0000
,
0220
0000
1001
0330
0110
0110
0110
0001
,
0110
1000
0110
0001
0110
1000
0220
0000
,
1001
1331
0110
1000
0110
0001
0110
1000
,
0110
0001
0110
1000
0002
0000
0000
0000
,
1103
0000
0011
0000
0110
0110
1001
0000
,
1000
0110
0100
0011
0010
0101
1010
0000
,
1100
0110
0011
0000
1000
1000
1010
0010
,
2010
0000
0200
3000
0020
0300
0002
0030
,
0010
0100
1000
0100
0013
0001
0010
0100
1000
0100
0010
0001
0010
0100
1000
0100
0010
0000
0000
0000
0000
0000
0000
0000
0000
0000
0000
0000
0000
0000
0000
0000
,
1100
0100
0011
0000
0011
0010
1100
0000
,
1100
0010
0001
0100
0010
1000
0100
0010
1000
0010
0001
0100
0010
0000
0000
0000
,
0011
0010
1100
0000
1100
0100
0011
0000
,
0011
0100
0001
0010
1000
0100
0001
0010
0001
0100
0010
1000
0100
0000
0000
0000
,
1100
0100
0011
0000
0011
0010
1100
0000
,
1100
0010
0001
0100
0010
1000
0100
0010
1000
0010
0001
0100
0010
0000
0000
0000
,
0011
0010
1100
0000
1100
0100
0011
0000
,
0011
0100
0001
0010
1000
0100
0001
0010
0001
0100
0010
1000
0100
0000
0000
0000
,
1000
0100
0010
0001
0010
0100
1000
0100
0010
0001
0010
0100
1000
0100
0010
0001
0010
0100
1000
0100
0010
0001
0010
0100
1000
0000
0000
0000
0000
0000
0000
0000
,
0110
0000
0001
0010
0100
1000
0001
0000
,
0210
0001
0010
1000
0010
0001
0010
1000
,
0010
0000
0001
0000
1310
0000
0000
0000
1100
0011
0110
0000
0101
0000
0000
0000
,
1100
0010
0001
0010
1100
0110
0001
0110
,
1100
0010
0001
0010
1100
0110
0001
0110
,
1100
0000
0011
0000
1010
0101
1001
0000
,
0110
0010
1001
0010
0100
0010
1001
0000
,
2100
0000
0011
0000
0110
0100
3010
0001
,
0101
0011
0000
0000
1010
1100
0000
0000
0101
0110
0000
0000
1001
0000
0000
0000
,
0110
0001
1010
0100
0011
0100
1100
0000
,
0110
0010
0011
0000
1100
1100
0011
0000
,
0220
0000
1001
0330
0110
0110
0110
0001
,
0110
1000
0110
0001
0110
1000
0220
0000
,
1001
1331
0110
1000
0110
0001
0110
1000
,
0110
0001
0110
1000
0002
0000
0000
0000
,
1103
0000
0011
0000
0110
0110
1001
0000
,
1000
0110
0100
0011
0010
0101
1010
0000
,
1100
0110
0011
0000
1000
1000
1010
0010
,
2010
0000
0200
3000
0020
0300
0002
0030
,
0010
0100
1000
0100
0013
0001
0010
0100
1000
0100
0010
0001
0010
0100
1000
0100
0010
0000
0000
0000
0000
0000
0000
0000
0000
0000
0000
0000
0000
0000
0000
0000
,
1100
0100
0011
0000
0011
0010
1100
0000
,
1100
0010
0001
0100
0010
1000
0100
0010
1000
0010
0001
0100
0010
0000
0000
0000
,
0011
0010
1100
0000
1100
0100
0011
0000
,
0011
0100
0001
0010
1000
0100
0001
0010
0001
0100
0010
1000
0100
0000
0000
0000
,
1100
0100
0011
0000
0011
0010
1100
0000
,
1100
0010
0001
0100
0010
1000
0100
0010
1000
0010
0001
0100
0010
0000
0000
0000
,
0011
0010
1100
0000
1100
0100
0011
0000
,
0011
0100
0001
0010
1000
0100
0001
0010
0001
0100
0010
1000
0100
0000
0000
0000
,
1000
0100
0010
0001
0100
0000
1000
0100
0010
0001
0010
0100
1000
0000
0001
0100
,
0010
0000
0100
1000
0010
0000
0001
0000
1000
0000
0010
0000
0100
0000
0001
1000
,
0010
0100
0010
0001
1000
0000
0100
0000
0001
0010
1000
0100
0010
0001
0010
0000
,
0100
0010
1000
0000
0001
1000
0010
0100
0001
1000
0010
0000
0100
0010
0001
0010
,
1100
0000
1010
0000
1001
0000
0001
0010
0100
1000
0100
0010
0001
0000
0000
0000
,
0011
0000
0101
0000
1001
0000
0001
0010
0100
1000
0100
0010
0001
0000
1000
0100
,
0001
0010
0100
1000
0000
0000
0001
0010
0001
0100
0001
1000
0001
0000
0000
0000
,
1100
0000
1010
0000
1001
0000
0001
0010
0100
1000
0100
0010
0001
0000
0000
0000
,
0011
0000
0101
0000
1001
0000
0001
0010
0100
1000
0100
0010
0001
0000
1000
0100
,
0001
0010
0100
1000
0000
0000
0001
0010
0001
0100
0001
1000
0001
0000
0100
0001
,
1000
0010
0100
0001
0010
0000
1000
0010
0100
0010
0100
0001
0010
0000
2000
0000
,
0000
0000
0000
0001
3000
0001
0000
0001
0000
0000
0000
0000
0000
0000
0000
0000
;
